<?xml version="1.0" standalone="no"?>
<!DOCTYPE svg PUBLIC "-//W3C//DTD SVG 1.1//EN" "http://www.w3.org/Graphics/SVG/1.1/DTD/svg11.dtd" >
<svg xmlns="http://www.w3.org/2000/svg">
<metadata>Generated by IcoMoon</metadata>
<defs>
<font id="icomoon" horiz-adv-x="1024">
<font-face units-per-em="1024" ascent="960" descent="-64" />
<missing-glyph horiz-adv-x="1024" />
<glyph unicode="&#x20;" horiz-adv-x="512" d="" />
<glyph unicode="&#xe901;" glyph-name="arrow-slider" d="M1010.304 183.491c18.261 18.261 18.261 47.867 0 66.127l-462.891 462.891c-18.261 18.261-47.867 18.261-66.127 0s-18.261-47.867 0-66.127l462.891-462.891c18.261-18.261 47.867-18.261 66.127 0zM13.696 183.491c18.261-18.261 47.867-18.261 66.127 0l462.891 462.891c18.261 18.261 18.261 47.867 0 66.127s-47.867 18.261-66.127 0l-462.891-462.891c-18.261-18.261-18.261-47.867 0-66.127z" />
<glyph unicode="&#xe902;" glyph-name="arrow-taminkonandegan" d="M199.82 944.795c14.946 17.082 40.062 19.993 58.392 7.605l4.431-3.416 572.554-500.984-572.554-500.984c-18.505-16.192-46.632-14.316-62.824 4.189-14.946 17.081-14.498 42.362 0.214 58.885l3.975 3.939 495.95 433.972-495.95 433.972c-17.082 14.946-19.993 40.062-7.605 58.392l3.416 4.431z" />
<glyph unicode="&#xe903;" glyph-name="bullet-footer" d="M128.001 960h767.997c70.691 0 128.001-57.31 128.001-128.001v-767.997c0-70.691-57.31-128.001-128.001-128.001h-767.997c-70.691 0-128.001 57.31-128.001 128.001v767.997c0 70.691 57.31 128.001 128.001 128.001zM128.001 960h767.997c70.691 0 128.001-57.31 128.001-128.001v-767.997c0-70.691-57.31-128.001-128.001-128.001h-767.997c-70.691 0-128.001 57.31-128.001 128.001v767.997c0 70.691 57.31 128.001 128.001 128.001z" />
<glyph unicode="&#xe904;" glyph-name="carosel-slider" d="M1023.999 448v0c0-22.752-18.444-41.195-41.195-41.195h-941.61c-22.752 0-41.195 18.444-41.195 41.195v0c0 22.752 18.444 41.195 41.195 41.195h941.61c22.752 0 41.195-18.444 41.195-41.195z" />
<glyph unicode="&#xe905;" glyph-name="email" d="M1024 682.676c0 29.742-11.69 56.788-30.684 76.854-0.582 0.668-1.188 1.3-1.816 1.904-20.286 20.452-48.39 33.144-79.406 33.144h-800.195c-61.702 0-111.9-50.2-111.9-111.902v-469.352c0-29.686 11.642-56.688 30.572-76.74 0.048-0.056 0.086-0.118 0.134-0.174 0.822-0.956 1.7-1.83 2.61-2.656 20.222-19.974 47.984-32.332 78.586-32.332h800.197c29.328 0 56.042 11.356 76.018 29.884 2.070 1.43 4.010 3.11 5.728 5.106 0.908 1.056 1.698 2.17 2.434 3.308 17.238 19.69 27.722 45.44 27.722 73.604v469.352zM111.9 734.57h800.197c0.564 0 1.124-0.024 1.684-0.042l-383.182-288.361c-11.084-8.126-25.934-8.126-37.022 0l-383.186 288.363c0.502 0.014 1.004 0.040 1.51 0.040zM60.008 213.324v469.352c0 4.616 0.614 9.090 1.75 13.352l305.851-230.167-306.397-263.623c-0.78 3.576-1.204 7.282-1.204 11.086zM912.094 161.43h-800.195c-1.94 0-3.852 0.116-5.736 0.324l310.527 267.175 41.16-30.974c16.222-11.978 35.226-17.962 54.238-17.962 19.006 0 38.020 5.988 54.238 17.962l41.358 31.124 310.629-267.263c-2.040-0.244-4.11-0.386-6.218-0.386zM963.988 213.324c0-3.664-0.386-7.238-1.112-10.69l-306.113 263.379 305.507 229.905c1.116-4.228 1.718-8.666 1.718-13.242v-469.352z" />
<glyph unicode="&#xe906;" glyph-name="idea" d="M477.681 960h55.628c-3.321-48.709-5.258-97.418-13.284-145.574-60.61 14.391-26.569 99.909-42.344 145.574zM163.562 835.46c63.931-13.561 108.489-62.547 128.415-122.326-63.654 13.284-106.828 63.101-128.415 122.326zM736.449 704.001c-14.668 74.171 51.477 120.389 117.068 127.585-27.676-51.754-69.189-94.097-117.068-127.585zM220.851 488.684c-8.026 156.644 133.397 299.728 290.041 293.085 152.77-0.277 288.104-138.932 280.078-292.255 5.258-97.418-72.234-166.608-106.275-250.465-18.543-88.562 14.115-205.907-90.499-249.635-42.067 18.819-86.902 29.89-131.736 39.576l19.373-45.388 20.757 29.613c21.864-25.462 43.174-51.2 64.208-77.215h-91.053c-29.336 21.587-57.565 44.281-83.857 69.466-81.090 56.458-32.934 166.884-68.636 245.483-38.192 76.938-104.337 146.128-102.4 237.734zM292.531 597.173c-71.957-125.648 26.292-247.974 94.097-348.99 25.462-14.391 50.923-28.783 76.662-43.174-23.524-11.901-70.85-35.425-94.374-47.325 84.411-6.642 169.098-7.472 253.786-6.642v31.55c-17.989 1.937-53.968 5.812-71.68 7.749 121.496 95.481 246.59 261.258 162.179 420.117-81.643 166.608-349.544 158.582-420.67-13.284zM365.041 92.922c81.92-34.318 199.818-54.798 272.329 4.982-90.776 5.812-182.106 5.535-272.329-4.982zM41.514 519.681c52.584-1.661 105.444-3.875 158.028-7.472-39.299-49.263-102.4-40.683-158.028-45.111v52.584zM816.155 519.127c55.351-1.661 110.979-4.428 166.331-8.026v-30.443c-58.949-7.749-134.504-30.997-166.331 38.469zM170.481 146.89c6.365 67.252 53.968 126.478 126.478 120.666-30.166-51.477-73.341-93.544-126.478-120.666zM722.888 281.117c59.779-21.31 107.382-65.868 125.094-127.862-63.931 14.945-111.533 63.377-125.094 127.862z" />
<glyph unicode="&#xe907;" glyph-name="location" d="M818.248 833.147c-81.8 81.802-190.563 126.853-306.247 126.853s-224.448-45.050-306.249-126.853c-81.802-81.805-126.853-190.565-126.853-306.247 0-234.025 221.277-428.676 340.155-533.248 16.52-14.532 30.786-27.082 42.152-37.698 14.24-13.302 32.519-19.954 50.792-19.954 18.278 0 36.552 6.652 50.794 19.954 11.366 10.618 25.632 23.167 42.152 37.698 118.878 104.574 340.155 299.223 340.155 533.248 0 115.682-45.050 224.443-126.853 306.247zM565.325 38.688c-16.882-14.85-31.46-27.676-43.48-38.902-5.522-5.154-14.17-5.156-19.694 0-12.018 11.23-26.599 24.055-43.48 38.905-111.761 98.31-319.791 281.309-319.791 488.208 0 205.737 167.379 373.115 373.117 373.115s373.115-167.379 373.115-373.115c0-206.899-208.027-389.897-319.788-488.21zM512.001 734.124c-105.243 0-190.863-85.618-190.863-190.861s85.62-190.861 190.863-190.861c105.243 0 190.861 85.618 190.861 190.861s-85.618 190.861-190.861 190.861zM512.001 412.388c-72.167 0-130.879 58.712-130.879 130.877s58.712 130.877 130.879 130.877c72.167 0 130.877-58.712 130.877-130.877s-58.71-130.877-130.877-130.877z" />
<glyph unicode="&#xe908;" glyph-name="phone" d="M241.31 314.286c18.765 23.303 42.661 36.975 69.054 39.284 26.179 2.29 52.281-6.793 75.659-26.409l73.122-61.16c5.274 3.464 10.564 6.715 15.644 9.947 7.327 4.501 14.247 8.753 20.084 13.123 59.499 45.525 112.191 102.68 161.201 174.954 23.663 35.956 39.064 65.828 49.534 95.697-18.849 14.436-36.478 29.622-53.625 44.207-6.481 5.438-12.98 11.089-19.461 16.527-48.607 40.786-53.671 98.678-12.886 147.284l53.022 63.189c6.021 7.176 12.236 14.582 18.025 21.951 11.616 14.313 23.832 29.108 36.55 43.088 18.858 22.239 42.597 35.253 68.564 37.526s52.031-6.386 75.102-24.957c0.232-0.194 0.232-0.194 0.463-0.388l78.752-66.673c29.627-24.86 48.068-56.704 54.845-94.93 10.545-61.702-2.694-121.196-13.427-160.31-26.343-96.027-70.308-186.732-139.061-285.826-83.485-119.471-187.96-217.186-310.67-290.332-46.924-27.482-109.862-60.655-182.457-71.725-4.451-0.604-9.114-1.227-13.372-1.599-49.166-4.301-92.001 9.752-127.425 42.040-0.25 0.407-0.695 0.583-0.944 0.989-12.241 12.441-26.072 23.455-40.618 35.265-9.916 7.925-20.081 16.259-30.072 25.035-22.989 20.079-36.291 44.652-38.582 70.831-2.309 26.392 6.756 52.707 26.39 75.871l106.588 127.497zM184.722 83.501c0.213 0.018 0.232-0.194 0 0 9.083-8.214 18.304-15.556 28.239-23.694 14.989-11.985 30.246-24.591 44.802-38.973 23.508-21.106 49.785-29.745 82.988-26.84 3.192 0.279 6.598 0.577 9.771 1.069 62.859 9.574 119.443 39.403 161.657 64.328 115.365 68.857 213.902 160.906 292.623 273.526 64.925 93.827 106.376 178.951 130.918 268.6 15.157 54.728 18.781 96.653 12.182 135.323-4.307 24.716-15.691 44.523-34.902 60.644l-78.928 66.228c-11.286 8.878-22.818 13.23-33.674 12.281-13.408-1.173-23.556-10.211-29.771-17.617-0.194-0.232-0.388-0.463-0.583-0.695-11.922-13.268-23.168-26.905-34.977-41.449-6.002-7.388-12.217-14.795-18.413-22.415l-53.022-63.189c-20.587-24.535-18.762-45.393 5.772-65.98 6.713-5.633 13.212-11.283 19.905-16.703 19.48-16.74 37.997-32.277 57.966-47.259 0.463-0.388 0.907-0.564 1.158-0.971 19.905-16.703 18.065-34.879 15.294-47.346-0.156-0.657-0.314-1.314-0.47-1.971-11.909-37.93-30.176-74.272-58.934-118.18l-0.194-0.232c-52.412-77.505-109.413-139.325-173.955-188.509-8.243-6.297-16.791-11.549-24.932-16.551-7.327-4.501-14.247-8.753-20.084-13.123-0.815-0.501-1.61-1.213-2.424-1.713-6.92-4.252-13.582-6.55-20.606-7.165-17.666-1.546-29.702 8.553-33.636 11.856l-79.16 66.422c-7.869 6.604-20.126 14.324-33.535 13.152-13.196-1.154-23.324-10.405-29.289-18.219-0.194-0.232-0.194-0.232-0.388-0.463l-107.014-127.534c-20.023-23.627-18.068-45.975 5.616-66.637zM459.644 721.144c-54.944-14.243-103.291-45.067-140.192-89.044s-58.649-96.923-63.347-153.525c-1.112-14.252-12.388-25.104-26.222-26.315-1.702-0.149-3.211-0.067-4.933-0.002-15.974 1.176-27.706 15.163-26.53 31.135 5.591 68.475 32.134 132.779 76.61 185.783s103.193 90.312 169.657 107.708c15.526 3.933 31.125-5.212 35.251-20.507s-4.768-31.3-20.295-35.233zM15.291 475.737c9.222 112.759 52.736 218.438 126.15 305.929s169.932 148.694 279.376 177.358c15.295 4.127 30.912-5.23 35.039-20.526 3.933-15.526-5.212-31.125-20.72-35.27-97.712-25.492-184.053-80.442-249.717-158.464-65.646-78.233-104.556-172.786-112.693-273.44-1.112-14.252-12.388-25.104-26.222-26.315-1.702-0.149-3.211-0.067-4.933-0.002-15.742 0.982-27.687 14.95-26.279 30.729z" />
<glyph unicode="&#xe909;" glyph-name="residan-be-jaygah-bartar" d="M266.826 960h55.589c41.253-34.231 87.479-77.239 68.754-137.216-45.349 42.13-78.994 94.793-124.343 137.216zM697.491 960h55.003c-40.667-52.078-78.702-109.129-149.211-121.417 28.672 42.715 60.27 83.090 94.208 121.417zM434.762 797.038c11.118 49.152 31.305 96.841 67.584 132.827 57.929-14.921 72.558-83.383 86.601-133.998 50.322-5.559 163.255 21.943 142.482-64.366-30.135-26.624-62.61-50.615-95.086-74.606 6.729-46.226 24.869-89.527 35.694-134.875-59.099-46.226-109.714 12.581-160.329 41.838-49.445-31.305-100.059-85.723-160.037-43.886 10.533 46.226 30.135 89.819 35.401 136.923-36.571 37.742-121.71 59.685-90.405 126.683 44.471 14.921 92.16 11.41 138.094 13.458zM511.123 870.181c-16.677-39.205-29.55-79.872-38.619-121.71-42.13 0.585-83.968 1.463-125.806 2.048 33.061-26.624 67.877-51.785 100.352-79.579-9.947-29.257-29.55-88.064-39.497-117.321 18.432 12.581 55.296 37.742 73.728 50.615 47.397 42.13 93.623-36.279 134.875-50.322-9.655 29.257-28.672 88.357-38.327 117.614 31.89 27.794 65.829 53.248 99.767 78.702-41.838-0.293-83.675-0.585-125.221-1.17-11.995 40.96-25.454 81.335-41.253 121.125zM196.609 594.871c45.641 26.331 94.208 48.274 147.749 51.2-27.794-42.715-101.815-111.47-147.749-51.2zM686.959 653.97c48.859-14.921 96.549-35.109 141.019-60.855-45.934-54.711-131.072 4.681-141.019 60.855zM241.080 464.677c180.809 1.17 361.326 1.463 541.842-0.293-13.751-16.091-41.545-48.567-55.589-64.951 0.585-20.187 1.463-60.27 2.048-80.457 98.304 0.878 196.315-1.17 294.619-0.585v-382.391h-1024v382.098c98.011-0.585 196.315 2.341 294.327 0.878 0.585 19.895 1.755 59.685 2.341 79.579-13.751 16.677-41.545 49.445-55.589 66.121zM350.209 420.498c-2.048-144.53-1.17-289.061-0.293-433.883 105.326 0.585 210.651 0.293 316.27 0 6.437 49.737 17.262 98.597 44.178 141.019 5.851-47.397 15.214-94.501 27.794-141.019 77.824 0.293 155.941 0.585 234.057 0-4.974 89.819 11.118 179.931-2.633 269.458-69.339 34.231-159.159 7.314-236.105 14.336-3.218-20.48-9.655-62.025-12.873-82.798-85.138 31.89-32.768 160.329-46.519 232.887-107.959-0.293-215.918-0.293-323.877 0zM47.983 266.898c1.463-93.623 4.974-186.953 4.389-280.576 80.75 0.878 161.499 0.585 242.249 0.293 4.681 95.671-1.755 191.342-0.293 286.427-82.505 2.633-164.425-6.144-246.345-6.144zM461.971 312.832c20.773-1.17 62.318-3.803 83.090-4.974 22.235-64.366 10.24-135.168 14.043-202.167-13.751-3.803-40.667-11.41-54.126-15.506 9.947 48.859 2.633 98.889-1.17 147.749-8.777 27.794-22.821 52.663-41.838 74.898z" />
<glyph unicode="&#xe90a;" glyph-name="search" d="M689.782 844.077c145.843-145.843 154.071-377.189 24.685-532.681l278.838-278.875c22.080-22.080 22.080-57.88 0-79.961-20.503-20.503-52.836-21.968-75.029-4.394l-4.932 4.394-282.945 282.879c-153.871-103.429-364.302-87.124-500.34 48.914-154.563 154.563-154.563 405.16 0 559.724s405.16 154.563 559.724 0zM210.018 764.117c-110.402-110.402-110.402-289.4 0-399.802s289.4-110.402 399.802 0c110.402 110.402 110.402 289.4 0 399.802s-289.4 110.402-399.802 0z" />
<glyph unicode="&#xe90b;" glyph-name="zistan-sadeghane" d="M233.529 860.443h93.298c44.089-18.204 87.893-38.116 131.698-57.742 43.804 19.627 87.609 39.538 132.267 57.742h90.169c77.938-28.16 157.013-69.973 197.973-145.636 41.529-65.138 31.004-145.067 33.849-218.453 36.978-0.569 74.24-0.853 111.218-1.422v-40.676c-44.658-1.422-89.031-2.56-133.689-3.698-135.396-142.507-273.066-283.59-419.555-415.003h-23.324c-78.791 64.284-158.151 131.982-211.627 219.876 91.022-26.738 147.627-105.244 218.169-162.418 137.671 100.124 246.613 238.649 373.759 353.279-64.284 5.12-128.569 11.093-192.284 21.333-25.6-8.533-51.2-17.067-76.8-25.031-23.324-28.444-47.218-56.604-71.396-84.48-5.404 43.52-10.524 87.324-15.36 131.129-10.809-27.591-21.333-55.467-32.142-83.342-71.68 42.098-153.031 54.613-234.667 56.889 31.004 20.196 62.862 39.538 95.004 58.311 37.262-14.791 74.809-28.729 112.64-42.098 8.533 70.258 19.911 141.369 54.044 204.231 19.627-65.422 33.564-132.551 48.356-199.396 41.244 13.938 82.489 27.876 123.733 42.098 69.404-29.582 145.067-32.711 219.591-33.564 17.636 100.693 3.698 221.867-92.729 278.47-95.289 69.689-218.169 33.564-308.052-26.169-54.898 28.16-109.511 66.56-173.796 65.138-125.156 5.404-240.924-107.52-234.098-233.529-1.422-129.991 130.56-195.982 186.311-300.088-115.2 38.969-192.853 143.36-236.089 252.587v104.107c34.702 110.649 122.596 195.129 233.529 227.556z" />
<glyph unicode="&#xe90c;" glyph-name="email1" d="M1023.997 682.675c0 29.742-11.69 56.788-30.683 76.853-0.582 0.668-1.188 1.3-1.816 1.904-20.286 20.452-48.39 33.144-79.405 33.144h-800.194c-61.702 0-111.899-50.2-111.899-111.901v-469.352c0-29.686 11.642-56.688 30.572-76.739 0.048-0.056 0.086-0.118 0.134-0.174 0.822-0.956 1.7-1.83 2.61-2.656 20.222-19.974 47.984-32.331 78.586-32.331h800.196c29.328 0 56.042 11.356 76.018 29.884 2.070 1.43 4.010 3.11 5.728 5.106 0.908 1.056 1.698 2.17 2.434 3.308 17.238 19.69 27.722 45.44 27.722 73.603v469.352zM111.898 734.568h800.196c0.564 0 1.124-0.024 1.684-0.042l-383.182-288.361c-11.084-8.126-25.934-8.126-37.022 0l-383.186 288.362c0.502 0.014 1.004 0.040 1.51 0.040zM60.007 213.324v469.352c0 4.616 0.614 9.090 1.75 13.352l305.85-230.167-306.396-263.623c-0.78 3.576-1.204 7.282-1.204 11.086zM912.093 161.431h-800.194c-1.94 0-3.852 0.116-5.736 0.324l310.526 267.175 41.16-30.974c16.222-11.978 35.226-17.962 54.238-17.962 19.006 0 38.019 5.988 54.238 17.962l41.358 31.124 310.628-267.263c-2.040-0.244-4.11-0.386-6.218-0.386zM963.986 213.324c0-3.664-0.386-7.238-1.112-10.69l-306.113 263.378 305.507 229.905c1.116-4.228 1.718-8.666 1.718-13.242v-469.352z" />
<glyph unicode="&#xe90d;" glyph-name="FACEBOOK" d="M726.406 776.962h104.143v182.927h-189.258c-15.788 0.632-208.242 4.171-258.124-178.839-0.723-1.918-16.664-45.442-16.664-147.112l-173.053-0.506v-191.86l173.272 0.484v-506.056h264.671v505.614h175.177v192.365h-175.177v60.526c0 37.627 16.489 82.457 95.012 82.457zM762.777 591.865v-108.096h-175.177v-505.614h-177.083v506.162l-173.272-0.484v107.59l173.732 0.484-0.46 21.425c-2.277 107.696 13.686 152.991 14.408 155.161 43.050 157.625 207.432 149.703 214.483 149.282l147.345-0.042v-98.657h-60.348c-102.326 0-138.785-64.339-138.785-124.549v-102.661h175.156z" />
<glyph unicode="&#xe90e;" glyph-name="INSTAGRAM" d="M807.77 959.999c115.823 0 210.669-91.533 215.994-206.063l0.236-10.163v-591.547c0-115.82-91.536-210.666-206.060-215.99l-10.163-0.236h-591.55c-115.82 0-210.665 91.536-215.991 206.060l-0.236 10.163v591.551c0 115.82 91.533 210.666 206.063 215.99l10.164 0.236h591.544zM807.777 907.933h-591.55c-87.5 0-159.232-68.815-163.917-155.167l-0.243-8.993v-591.544c0-87.5 68.815-159.232 155.167-163.917l8.993-0.244h591.544c87.5 0 159.235 68.815 163.92 155.167l0.243 8.994v591.544c0 90.517-73.643 164.16-164.157 164.16zM512 667.428c121.187 0 219.429-98.242 219.429-219.429s-98.242-219.429-219.429-219.429c-121.187 0-219.429 98.242-219.429 219.429s98.242 219.429 219.429 219.429zM512 618.666c-94.257 0-170.667-76.41-170.667-170.667s76.41-170.667 170.667-170.667c94.257 0 170.667 76.41 170.667 170.667s-76.41 170.667-170.667 170.667zM785.067 823.466c37.703 0 68.267-30.564 68.267-68.267s-30.564-68.267-68.267-68.267c-37.703 0-68.267 30.564-68.267 68.267s30.564 68.267 68.267 68.267z" />
<glyph unicode="&#xe90f;" glyph-name="linkedin" d="M120.138 960c-69.605 0-120.138-49.064-120.138-116.616 0-67.529 49.53-116.548 117.731-116.548 35.382 0 65.862 11.725 88.165 33.901 21.389 21.288 33.176 50.635 33.154 83.17-1.56 68.349-50.466 116.092-118.912 116.092zM174.837 793.363c-13.814-13.729-33.577-20.992-57.106-20.992-43.069 0-73.17 29.188-73.17 71.012 0 42.507 30.369 71.081 75.576 71.081 44.183 0 73.37-28.118 74.373-71.104-0.022-19.626-6.996-37.362-19.674-49.998zM21.367-63.977h200.259v752.359h-200.259v-752.359zM65.929 642.846h111.136v-661.265h-111.136v661.265zM749.702 688.381c-92.866 0-149.726-32.763-182.657-63.567l-6.261 63.567h-226.573v-752.336h221.894v395.407c0 17.030 6.751 52.388 10.984 61.723 26.804 58.991 62.965 58.991 117.731 58.991 63.077 0 116.372-60.448 116.372-131.984v-384.182h222.807v425.073c0 224.899-142.196 327.308-274.298 327.308zM979.44-18.442h-133.684v338.647c0 96.239-73.705 177.52-160.934 177.52-55.969 0-119.38 0-158.171-85.379-7.999-17.645-15.129-59.925-15.129-80.894v-349.894h-132.749v661.288h141.705l9.091-92.073h36.518l6.528 10.769c14.861 24.453 61.851 81.326 177.087 81.326 110.646 0 229.737-88.157 229.737-281.728v-379.583z" />
<glyph unicode="&#xe910;" glyph-name="TWITTER" d="M1015.501 780.76c-6.859 4.763-15.946 4.504-22.572-0.615-8.699-6.747-22.843-12.104-38.072-16.232 39.661 45.52 40.514 75.92 40.087 82.905-0.445 7.223-4.689 13.632-11.083 16.708-6.413 3.096-13.93 2.342-19.646-1.905-44.621-33.217-89.068-40.223-115.496-40.937-40.571 39.766-93.253 61.554-149.324 61.554-120.049 0-217.7-101.359-217.7-225.935 0-10.716 0.737-21.41 2.19-32.007-208.051 2.401-377.003 206.568-378.747 208.691-4.069 4.961-10.23 7.62-16.546 7.044-6.317-0.556-11.955-4.227-15.113-9.862-59.87-106.36-19.802-199.782 16.817-253.279-6.471 3.532-11.722 7.024-14.861 9.386-5.812 4.445-13.582 5.179-20.13 1.885-6.53-3.294-10.695-10.041-10.83-17.482-1.608-101.359 46.017-159.42 90.811-191.527-5.968 0.576-12.032-1.687-16.178-6.31-4.65-5.179-6.297-12.501-4.282-19.228 30.943-103.721 106.912-138.962 155.254-150.928-99.395-79.254-245.677-53.736-247.286-53.457-8.835 1.607-17.554-3.155-21.157-11.549-3.584-8.374-1.143-18.197 5.987-23.752 104.917-82.012 230.41-100.169 321.047-100.169 68.569 0 117.22 10.398 121.87 11.45 459.154 111.439 472.076 542.176 471.011 612.758 86.2 82.091 99.666 113.364 101.739 121.103 2.228 8.196-0.91 16.926-7.789 21.689zM888.826 661.006c-4.321-4.068-6.588-9.922-6.2-15.934 1.221-19.050 24.703-468.24-440.631-581.168-2.112-0.457-187.087-39.984-347.436 41.373 67.755 1.925 164.903 20.101 232.58 97.926 5.115 5.854 6.355 14.267 3.177 21.41-3.139 7.084-10.056 11.628-17.631 11.628-0.058 0-0.136 0-0.194 0-0.969-0.635-102.708 0.119-149.286 99.236 18.755-1.091 41.89 0.099 60.315 8.79 7.595 3.591 12.070 11.747 11.141 20.26-0.93 8.493-7.091 15.418-15.268 17.184-5.212 1.131-118.479 27.066-134.329 153.606 17.186-7.699 39.177-13.99 60.916-10.597 7.479 1.151 13.602 6.648 15.713 14.089s-0.194 15.458-5.91 20.537c-4.843 4.326-111.214 101.141-60.78 226.014 54.754-58.835 216.925-211.727 413.409-200.178 5.755 0.337 11.083 3.314 14.512 8.077 3.41 4.763 4.572 10.835 3.177 16.569-3.72 15.18-5.619 30.817-5.619 46.453 0 102.709 80.29 186.249 178.969 186.249 48.263 0 93.543-19.724 127.47-55.561 3.565-3.77 8.467-5.933 13.582-6.032 20.537-0.297 54.29 2.183 92.42 17.839-11.005-14.030-27.164-30.837-50.937-49.965-6.723-5.417-9.183-14.684-6.064-22.839 3.119-8.176 11.179-13.315 19.589-12.541 4.515 0.377 27.532 2.441 53.553 8.215-14.222-15.637-33.655-35.599-60.237-60.641z" />
<glyph unicode="&#xe911;" glyph-name="WHATSAPP" d="M512 959.999c-282.329 0-512-229.671-512-512 0-96.315 26.762-189.814 77.529-271.006-20.224-70.853-56.753-204.879-57.147-206.277-1.89-6.932 0.138-14.336 5.317-19.318s12.662-6.754 19.476-4.667l202.949 62.425c79.498-47.892 170.535-73.157 263.877-73.157 282.329 0 512 229.671 512 512s-229.671 512-512 512zM512-24.615c-88.99 0-175.675 24.871-250.703 71.897-3.17 1.989-6.814 2.993-10.457 2.993-1.95 0-3.899-0.295-5.79-0.866l-177.211-54.548c13.017 47.518 36.411 132.51 49.979 179.791 1.575 5.474 0.689 11.382-2.402 16.167-49.743 76.544-76.032 165.474-76.032 257.182 0 260.588 212.027 472.615 472.615 472.615s472.615-212.027 472.615-472.615c0-260.588-212.027-472.615-472.615-472.615zM846.473 327.365c-36.352 20.185-67.308 40.428-89.895 55.198-17.25 11.264-29.716 19.397-38.853 23.985-25.541 12.741-44.898 3.742-52.263-3.702-0.926-0.926-1.753-1.93-2.462-2.993-26.526-39.798-61.164-77.863-71.306-79.911-11.717 1.831-66.56 33.004-121.068 78.395-55.65 46.375-90.663 90.782-95.803 121.029 35.702 36.746 48.561 59.865 48.561 86.174 0 27.116-63.252 140.327-74.693 151.769-11.481 11.461-37.337 13.253-76.859 5.376-3.801-0.768-7.306-2.639-10.063-5.376-4.785-4.785-116.756-118.942-63.547-257.3 58.407-151.847 208.325-328.35 399.458-357.022 21.721-3.249 42.082-4.864 61.145-4.864 112.443 0 178.806 56.576 197.494 168.802 1.398 8.212-2.56 16.404-9.846 20.441zM603.529 181.937c-202.122 30.306-329.433 230.558-368.542 332.209-38.794 100.825 32.748 190.72 50.708 211.042 14.612 2.481 29.991 3.525 36.411 2.521 13.41-18.649 59.845-106.378 61.893-122.171 0-10.338-3.367-24.734-43.461-64.847-3.702-3.682-5.77-8.684-5.77-13.922 0-103.109 217.482-246.154 256-246.154 33.497 0 77.174 56.3 102.046 92.987 1.438-0.059 3.86-0.551 7.306-2.284 7.089-3.564 19.377-11.579 34.914-21.74 20.519-13.41 47.774-31.212 79.951-49.664-14.612-70.302-55.454-141.41-211.456-117.977z" />
<glyph unicode="&#xe912;" glyph-name="admin" d="M345.608 960h289.233c45.244-46.382 91.587-92.582 128.039-146.421 3.48-27.465-20.516-46.927-35.719-66.572-114.667-122.593-237.028-238.275-348.765-363.233-31.323-54.203 48.175-82.76 74.552-119.683-151.669-18.189-256.078 160.972-197.462 289.75 60.814 87.489 153.501 150.241 208.636 241.185-12.273 66.026-81.513 109.316-118.514 164.974zM479.232 396.275c49.219 51.568 93.93 108.806 153.481 149.768 67.441-19.75 108.395-83.387 152.354-132.944v-2.926c-27.803-35.476-58.424-68.575-89.233-101.491-2.818-124.166 1.315-248.516-3.006-372.682-86.979 49.923-140.706 135.87-212.469 202.433-0.939 85.947-0.376 171.894-1.127 257.842z" />
<glyph unicode="&#xe913;" glyph-name="arrow-faq" d="M1010.305 712.51c18.26-18.26 18.26-47.867 0-66.127l-462.891-462.891c-18.26-18.26-47.867-18.26-66.127 0s-18.26 47.867 0 66.127l462.891 462.891c18.26 18.26 47.867 18.26 66.127 0zM13.695 712.51c18.26 18.26 47.867 18.26 66.127 0l462.891-462.891c18.26-18.26 18.26-47.867 0-66.127s-47.867-18.26-66.127 0l-462.891 462.891c-18.26 18.26-18.26 47.867 0 66.127z" />
<glyph unicode="&#xe914;" glyph-name="calendar" d="M726.226 960c14.907 0 27.275-10.876 29.599-25.127l0.392-4.865-0.035-77.105 64.302-0.017c79.862 0 145.142-62.428 149.704-141.147l0.254-8.812v-616.97c0-82.819-67.138-149.958-149.958-149.958v0h-616.97c-82.819 0-149.958 67.138-149.958 149.958v0 616.97c0 82.819 67.138 149.958 149.958 149.958v0l64.234 0.017 0.035 77.105c0 16.563 13.428 29.991 29.991 29.991 14.908 0 27.275-10.876 29.599-25.127l0.392-4.865-0.017-77.105h368.434l0.052 77.105c0 16.563 13.428 29.991 29.991 29.991zM910.425 471.566h-796.92l0.035-385.606c0-47.207 36.355-85.923 82.596-89.676l7.38-0.298h616.97c49.691 0 89.974 40.283 89.974 89.974v0l-0.035 385.606zM267.749 792.956l-64.234-0.052c-49.691 0-89.974-40.283-89.974-89.974v0l-0.035-171.363h796.92l0.035 171.363c0 47.207-36.355 85.923-82.596 89.676l-7.38 0.298-64.302 0.052 0.035-77.173c0-16.563-13.428-29.991-29.991-29.991-14.908 0-27.275 10.876-29.599 25.127l-0.392 4.865-0.052 77.173h-368.434l0.017-77.173c0-16.563-13.428-29.991-29.991-29.991-14.907 0-27.275 10.876-29.599 25.127l-0.392 4.865-0.035 77.173z" />
<glyph unicode="&#xe915;" glyph-name="clock" d="M512 960c282.769 0 512-229.23 512-512s-229.23-512-512-512c-282.769 0-512 229.23-512 512s229.23 512 512 512zM512 888.557c-243.314 0-440.557-197.245-440.557-440.557s197.245-440.557 440.557-440.557c243.314 0 440.557 197.245 440.557 440.557s-197.245 440.557-440.557 440.557zM512 748.32c18.084 0 33.030-13.438 35.394-30.874l0.326-4.847v-249.787l148.297-148.314c12.682-12.682 13.835-32.526 3.459-46.511l-3.459-4.006c-12.681-12.682-32.526-13.834-46.51-3.459l-4.006 3.459-158.759 158.759c-5.359 5.359-8.84 12.246-10.018 19.637l-0.445 5.622v264.599c0 19.728 15.992 35.721 35.721 35.721z" />
<glyph unicode="&#xe916;" glyph-name="goggle-map" d="M228.193 803.44c49.335 83.299 138.815 140.455 234.476 153.309 78.869 11.212 161.622-6.782 228.186-50.757 57.866-37.302 102.497-93.91 125.961-158.614 42.333-113.929 31.614-250.392-40.693-349.99-88.933-128.642-178.086-257.119-266.965-385.761-88.332 127.165-176.39 254.603-264.558 381.932-86.636 116.937-89.316 285.615-16.408 409.881zM391.237 870.059c-56.117-27.019-102.224-74.439-126.29-132.033-33.911-79.471-35.223-173.053-1.148-252.744 11.759-28.606 30.957-53.109 48.24-78.486 65.852-94.731 130.994-189.954 197.284-284.412 65.415 94.95 131.267 189.626 196.846 284.466 17.174 25.214 36.098 49.608 47.913 77.994 36.262 84.776 32.981 185.578-7.931 268.167-29.808 60.711-85.214 107.421-148.879 129.352-66.727 23.136-142.589 18.815-206.035-12.307zM486.186 758.591c65.634 14.986 136.791-30.41 152.27-95.606 20.456-69.463-29.59-147.675-100.255-160.638-47.037-10.447-98.614 9.025-128.204 46.709-27.073 33.637-36.7 81.276-21.933 122.187 13.947 43.975 53.053 78.213 98.122 87.347zM498 696.731c-27.347-5.414-49.662-29.371-53.109-57.101-6.29-36.974 23.902-74.385 61.203-76.737 39.598-4.704 77.174 31.723 73.564 71.486-1.148 39.982-42.771 71.813-81.659 62.352zM268.283 241.563c22.643 1.586 51.631 14.986 69.134-5.961 15.643-17.447 3.173-47.967-19.799-50.319-70.118-9.79-141.167-22.643-205.378-53.71-17.502-9.134-36.044-18.924-47.748-35.442-5.196-8.15 5.852-14.276 10.774-19.034 32.324-22.753 71.212-33.528 108.897-43.701 119.562-29.262 243.5-35.77 366.18-33.966 100.31 2.352 201.167 10.994 298.523 36.318 33.419 9.352 67.438 19.69 96.7 38.997 5.907 4.868 13.947 9.408 15.587 17.502-8.15 17.12-26.417 26.363-42.115 35.551-64.649 33.199-137.064 47.037-208.496 56.664-10.282 1.204-20.565 5.743-25.98 14.986-11.103 15.369-2.735 38.997 14.603 45.452 10.009 4.922 21.276 1.203 31.723 0.383 71.869-10.173 144.229-25.488 209.644-57.866 29.808-15.478 60.164-35.059 76.080-65.688 12.307-22.698 8.15-51.741-7.986-71.431-22.589-28.332-56.281-44.74-89.097-58.086-65.524-25.105-135.15-37.192-204.503-45.452-119.89-13.072-241.039-13.838-361.203-4.43-82.972 7.438-166.545 19.252-245.032 48.24-34.348 13.564-69.681 30.192-93.309 59.617-16.19 19.635-20.401 48.678-8.204 71.431 15.205 29.48 43.975 48.732 72.47 63.883 58.796 30.082 123.774 45.506 188.532 56.062z" />
<glyph unicode="&#xe917;" glyph-name="TEXT" d="M650.24 816.64c84.831 0 153.6-68.769 153.6-153.6v-563.2c0-84.831-68.769-153.6-153.6-153.6h-409.6c-84.831 0-153.6 68.769-153.6 153.6v563.2c0 84.831 68.769 153.6 153.6 153.6h409.6zM650.24 755.2h-409.6c-48.354 0-88.010-37.238-91.854-84.601l-0.306-7.559v-563.2c0-48.354 37.238-88.010 84.601-91.854l7.559-0.306h409.6c48.354 0 88.010 37.238 91.854 84.601l0.306 7.559v563.2c0 48.354-37.238 88.010-84.601 91.854l-7.559 0.306zM752.64 949.76c98.513 0 178.976-77.285 184.065-174.531l0.255-9.789v-563.2c0-16.966-13.754-30.72-30.72-30.72-15.27 0-27.937 11.141-30.318 25.737l-0.402 4.983v563.2c0 65.037-50.526 118.273-114.467 122.596l-8.413 0.284h-460.8c-16.966 0-30.72 13.754-30.72 30.72 0 15.269 11.141 27.937 25.737 30.318l4.983 0.402h460.8z" />
<glyph unicode="&#xe918;" glyph-name="post" d="M725.942 959.999c6.499 0 12.786-2.066 17.982-5.833l3.679-3.139 106.971-106.97c10.766-10.766 11.843-27.554 3.23-39.524l-3.23-3.797-106.971-106.97c-4.596-4.596-10.502-7.581-16.84-8.591l-4.821-0.382-183.309 0.039v-152.681l236.794-0.034c131.858 0 239.344-104.347 244.388-234.97l0.185-9.603v-320.911c0-15.508-11.524-28.324-26.476-30.353l-4.157-0.28h-962.734c-15.508 0-28.324 11.524-30.353 26.476l-0.28 4.157v347.654c0 117.138 92.46 212.682 208.381 217.63l9.449 0.201 263.536 0.034v397.215c0 15.508 11.524 28.324 26.476 30.353l4.157 0.28h213.941zM217.832 470.852c-83.68 0-152.027-65.647-156.349-148.251l-0.217-8.315v-317.021h313.107l0.025 317.021c0 83.68-65.647 152.027-148.251 156.349l-8.315 0.217zM779.427 470.852l-410.261 0.034 2.695-2.57c36.956-36.956 60.694-87.129 63.518-142.82l0.283-11.209-0.025-317.021h527.097v290.279c0 98.17-77.171 178.317-174.16 183.084l-9.149 0.225zM244.575 318.177c16.918 0 30.633-13.715 30.633-30.633 0-15.508-11.524-28.324-26.476-30.353l-4.156-0.28h-53.485c-16.918 0-30.633 13.715-30.633 30.633 0 15.508 11.524 28.324 26.476 30.353l4.157 0.28h53.485zM713.256 898.735h-170.622v-152.637h170.579l76.362 76.319-76.319 76.319z" />
<glyph unicode="&#xe919;" glyph-name="quotation" d="M546.797 746.252v-278.37c0-54.906 44.511-99.417 99.417-99.417h58.753c27.453 0 49.709-22.256 49.709-49.709 0-7.717-1.797-15.328-5.248-22.231l-87.129-174.256c-12.277-24.555-2.325-54.414 22.23-66.691 6.903-3.451 14.513-5.248 22.231-5.248h127.449c18.828 0 36.040 10.638 44.461 27.478l65.796 131.589c52.304 104.607 79.535 219.956 79.535 336.911v199.944c0 54.906-44.511 99.417-99.417 99.417h-278.369c-54.906 0-99.417-44.511-99.417-99.417zM0.001 746.252v-278.37c0-54.906 44.511-99.417 99.417-99.417h58.753c27.453 0 49.709-22.256 49.709-49.709 0-7.717-1.797-15.328-5.248-22.231l-87.129-174.256c-12.277-24.555-2.325-54.414 22.23-66.691 6.903-3.451 14.513-5.248 22.231-5.248h127.449c18.828 0 36.040 10.638 44.461 27.478l65.796 131.589c52.304 104.607 79.535 219.956 79.535 336.911v199.944c0 54.906-44.511 99.417-99.417 99.417h-278.369c-54.906 0-99.417-44.511-99.417-99.417z" />
<glyph unicode="&#xe91a;" glyph-name="tag" d="M692.695 959.998c80.194 0 145.746-62.687 150.326-141.733l0.256-8.847v-843.254c0-21.849-22.246-35.9-41.532-27.885l-4.078 2.061-285.667 171.433-285.667-171.433c-18.735-11.241-42.23 0.605-45.279 21.267l-0.332 4.558v843.254c0 80.194 62.687 145.746 141.733 150.326l8.847 0.256h361.395zM323.89 899.466c-43.852-3.559-78.851-38.434-82.605-82.232l-0.334-7.817-0.051-790.061 255.603 153.328c7.948 4.769 17.546 5.563 26.045 2.385l4.945-2.385 255.5-153.328 0.051 790.061c0 47.403-36.507 86.28-82.938 90.049l-7.41 0.299-368.805-0.299z" />
<glyph unicode="&#xe91b;" glyph-name="waze" d="M608.719 926.472c125.68-7.52 247.28-70 326.24-168.079 55.2-64.88 85.12-149.28 89.040-233.92v-27.68c-5.76-138.64-89.36-266.48-207.84-336.239 20.24-43.28 22.16-97.28-7.2-137.040-36.24-55.28-117.519-72.32-172.64-35.68-38.16 22.48-57.52 65.44-61.92 108.079-41.52 1.68-83.040 3.040-124.56 4.56-3.44-42.32-20.56-85.68-57.52-109.52-53.52-39.12-135.76-25.52-174.24 28.32-26.16 32.080-28.88 75.36-22.16 114.64-56.4 16.96-114.24 39.12-155.2 83.28-24.16 24.96-36.64 58.64-40.72 92.72v18.72c19.2 37.36 71.6 16.56 97.44 46 29.92 32.48 33.68 79.359 32 121.36-5.68 128.96 57.52 258 161.44 334.16 88.080 72 205.12 104 317.84 96.32zM682.559 155.593c-35.36-11.68-52.8-58.56-33.76-90.56 13.28-24.64 44.159-37.84 71.12-30.16 30.32 7.040 51.84 39.2 46.64 69.919-4.24 37.92-48.16 65.12-84 50.8zM299.039 155.753c-42.32-13.52-56.88-73.92-23.92-104.4 31.6-34.72 96.4-17.44 106 28.64 13.84 46.32-36.4 94.24-82.080 75.76zM339.999 787.913c-73.28-51.6-126.88-131.92-142.080-220.64-9.92-55.36 2.56-112.799-14.8-167.12-13.040-55.52-59.6-98.639-115.040-110.239 32.32-60.32 102.56-82.88 164.64-98.72 37.36 29.76 89.6 42.72 134.639 23.36 26.24-8.8 43.28-31.36 63.52-48.64 53.68-3.76 107.679-4.88 161.52-5.52 35.52 58.64 115.2 80.96 175.44 47.36 76.88 40.32 140.16 107.92 170.72 189.68 36.72 95.28 23.040 207.36-32.8 292.48-50.88 79.759-134.56 136.48-225.92 159.599-114.88 30.16-243.44 8.56-339.84-61.6zM449.679 448.713c13.12-44.32 49.12-81.68 94.88-91.6 46.32-12.080 98.639 4.080 129.84 40.4 18.72 18.96 23.44 46.080 36.24 68.56 10.96 18.56 41.040 17.68 51.76-0.72 11.28-17.12 0.72-37.76-5.12-54.96-28-72.72-103.359-123.2-181.2-121.839-88.4-2-172.399 64.16-190.4 150.88-4.8 14.32 3.36 31.2 17.040 37.2 21.2 11.36 42.4-7.6 46.96-27.92zM480.879 607.993c1.44-24.8-30.56-41.2-50-25.84-19.68 12.32-17.12 44.8 3.92 54.32 19.84 10.88 47.36-5.68 46.080-28.48zM736.879 607.833c1.36-24.88-31.12-41.2-50.4-25.44-19.36 12.64-16.4 44.88 4.56 54.24 19.92 10.64 47.2-6 45.84-28.8z" />
<glyph unicode="&#xe91c;" glyph-name="zoom" d="M712.125 840.73c157.813-157.813 159.018-412.931 3.613-572.229l291.295-291.318-41.182-41.182-293.734 293.693c-159.683-122.859-389.588-111.142-535.879 35.149-159.027 159.027-159.027 416.86 0 575.887s416.861 159.027 575.887 0zM177.419 799.548c-136.283-136.283-136.283-357.242 0-493.525s357.242-136.283 493.525 0c136.283 136.283 136.283 357.242 0 493.525s-357.242 136.283-493.525 0zM424.181 714.731c13.361 0 24.386-9.998 26.004-22.92l0.204-3.287-0.005-109.524 109.536-0.005c14.474 0 26.208-11.734 26.208-26.208 0-13.361-9.998-24.386-22.92-26.004l-3.287-0.204-109.536 0.005 0.005-109.536c0-14.474-11.734-26.208-26.208-26.208-13.361 0-24.386 9.998-26.004 22.92l-0.204 3.287-0.005 109.536-109.524-0.005c-14.474 0-26.208 11.734-26.208 26.208 0 13.361 9.998 24.386 22.92 26.004l3.287 0.204 109.524 0.005 0.005 109.524c0 14.474 11.734 26.208 26.208 26.208z" />
<glyph unicode="&#xe91d;" glyph-name="USER" d="M914.206 34.928c11.712-11.6 22.914-23.703 33.577-36.275 13.591-16.024 11.619-40.031-4.405-53.622s-40.031-11.619-53.622 4.405c-9.239 10.893-18.946 21.381-29.094 31.432-190.065 188.254-494.51 190.437-687.232 7.626l-11.207-10.967-29.966-30.255c-14.787-14.928-38.874-15.044-53.802-0.257-13.435 13.307-14.872 34.149-4.246 49.067l3.989 4.735 29.966 30.255c221.517 223.647 582.395 225.373 806.042 3.856zM520.339 959.999c165.088 0 298.918-133.83 298.918-298.918s-133.83-298.918-298.918-298.918c-165.088 0-298.918 133.83-298.918 298.918s133.83 298.918 298.918 298.918zM520.339 883.911c-123.066 0-222.829-99.764-222.829-222.829s99.764-222.829 222.829-222.829c123.066 0 222.829 99.764 222.829 222.829s-99.764 222.829-222.829 222.829z" />
<glyph unicode="&#xe91e;" glyph-name="share-1" d="M832.556 959.998c105.731 0 191.444-85.712 191.444-191.443s-85.712-191.443-191.444-191.443c-64.493 0-121.538 31.89-156.224 80.762l-301.369-155.189c5.156-17.328 7.924-35.683 7.924-54.686 0-18.983-2.763-37.32-7.909-54.632l301.353-155.242c34.687 48.872 91.732 80.762 156.224 80.762 105.731 0 191.444-85.712 191.444-191.443s-85.712-191.443-191.444-191.443c-105.731 0-191.444 85.712-191.444 191.443 0 19.003 2.768 37.359 7.924 54.686l-301.369 155.189c-34.687-48.872-91.732-80.762-156.224-80.762-105.731 0-191.444 85.712-191.444 191.443s85.712 191.443 191.444 191.443c64.493 0 121.538-31.89 156.224-80.762l301.353 155.242c-5.145 17.312-7.909 35.649-7.909 54.632 0 105.731 85.712 191.443 191.444 191.443zM832.556 256.556c-50.548 0-94.311-29.047-115.508-71.36-0.219-0.891-0.607-1.736-1.037-2.571l-0.737-1.115c-7.594-16.446-11.831-34.761-11.831-54.066 0-71.307 57.806-129.114 129.113-129.114s129.113 57.806 129.113 129.114c0 71.307-57.806 129.114-129.113 129.114zM191.444 577.113c-71.307 0-129.113-57.806-129.113-129.114s57.806-129.114 129.113-129.114c50.697 0 94.57 29.221 115.697 71.738 0.153 0.778 0.486 1.489 0.849 2.193l0.693 1.022c7.622 16.47 11.875 34.819 11.875 54.16 0 19.285-4.227 37.581-11.807 54.014-0.325 0.344-0.547 0.752-0.761 1.169l-0.903 2.301c-21.146 42.459-64.988 71.631-115.642 71.631zM832.556 897.669c-71.307 0-129.113-57.806-129.113-129.114 0-19.362 4.262-37.729 11.899-54.214 0.293-0.256 0.484-0.609 0.669-0.968l0.983-2.463c21.177-42.371 64.971-71.469 115.562-71.469 71.307 0 129.113 57.806 129.113 129.114s-57.806 129.114-129.113 129.114z" />
<glyph unicode="&#xe91f;" glyph-name="reply-1" d="M1022.23 522.981c3.26 11.572-0.575 24.337-8.822 32.926-117.041 130.851-234.019 261.767-351.103 392.596-8.993 10.4-24.465 14.3-37.315 9.398-6.883-2.323-12.276-7.459-16.943-12.85-116.211-130.34-232.655-260.445-348.758-390.87-11.21-12.297-11.295-32.714-0.064-45.009 6.607-7.672 16.73-11.891 26.81-11.615 55.324-0.085 110.627-0.063 165.929 0.021 1.129-67.621-14.833-135.199-44.69-195.787-33.608-68.132-84.073-127.271-143.573-174.177-69.603-55.111-151.374-93.705-236.768-117.169-14.833-3.452-26.447-17.475-26.314-32.819-0.325-14.641 9.904-29.26 24.332-32.777 149.392-23.783 305.199 1.15 441.697 65.533 77.616 36.868 149.562 86.566 209.021 148.816 60.055 62.741 107.344 139.035 130.19 223.236 10.166 37.465 15.515 76.272 15.749 115.103 55.922 0.171 111.842-0.256 167.763 0.063 15.067-0.256 29.26 10.763 32.861 25.382zM913.139 565.092c-42.133-0.213-84.244 0.171-126.376-0.128-13.873-0.021-26.916-9.697-31.391-22.76-3.239-8.822-1.363-18.349-1.599-27.513 0.937-87.462-27.086-174.305-76.272-246.358-25.829-38.68-57.434-73.332-92.49-103.808-105.15-90.743-240.711-142.103-378.168-155.401 45.435 24.849 88.464 54.237 127.208 88.654 56.943 50.337 104.681 111.522 137.329 180.293 35.697 74.547 52.575 158.172 47.374 240.753-0.831 9.846-0.298 20.416-5.498 29.217-5.925 11.124-18.456 17.944-30.944 17.667-40.619 0.171-81.239 0-121.836 0.042 92.043 103.061 184.193 206.037 276.279 309.077 92.171-103.211 184.279-206.485 276.386-309.738z" />
<glyph unicode="&#xe920;" glyph-name="mobile" d="M771.789 960h-519.577c-38.858 0-70.359-31.501-70.359-70.359v-883.281c0-38.858 31.501-70.359 70.359-70.359h519.577c38.858 0 70.359 31.501 70.359 70.359v883.281c0 38.858-31.501 70.359-70.359 70.359zM252.211 905.877h519.577c8.967 0 16.237-7.27 16.237-16.237v-883.281c0-8.967-7.27-16.237-16.237-16.237h-519.577c-8.967 0-16.237 7.27-16.237 16.237v883.281c0 8.967 7.27 16.237 16.237 16.237zM589.937 846.343c11.957 0 21.649-9.692 21.649-21.649 0-10.628-7.659-19.467-17.758-21.3l-3.891-0.349h-164.533c-11.957 0-21.649 9.692-21.649 21.649 0 10.628 7.659 19.467 17.758 21.3l3.891 0.349h164.533zM512 188.211c22.205 0 40.505-16.715 43.006-38.248l0.292-5.655c0-23.913-19.385-43.298-43.298-43.298-22.205 0-40.505 16.715-43.006 38.248l-0.292 5.655c0 23.913 19.385 43.298 43.298 43.298z" />
<glyph unicode="&#xe921;" glyph-name="uplode" d="M493.774 519.803l-0.955 0.018c1.271 0 2.52-0.096 3.739-0.28 0.392-0.061 0.793-0.132 1.193-0.212 0.827-0.165 1.622-0.369 2.401-0.61 0.367-0.115 0.745-0.241 1.12-0.377 0.769-0.279 1.517-0.592 2.245-0.94 0.382-0.181 0.757-0.373 1.127-0.573 0.795-0.434 1.574-0.915 2.324-1.437 0.202-0.139 0.406-0.284 0.606-0.433 1.006-0.758 1.825-1.462 2.594-2.215l0.188-0.186 144.68-144.68c9.685-9.685 9.685-25.39 0-35.076-8.806-8.806-22.584-9.606-32.294-2.401l-2.782 2.401-102.355 102.341 0.015-374.162c0-13.698-11.104-24.802-24.802-24.802-12.556 0-22.934 9.33-24.576 21.437l-0.227 3.365-0.015 374.162-102.324-102.341c-8.806-8.806-22.584-9.606-32.294-2.401l-2.782 2.401c-8.806 8.806-9.606 22.584-2.401 32.294l2.401 2.782 144.68 144.68c1.034 1.014 1.939 1.783 2.897 2.484l-2.897-2.484c1.103 1.103 2.284 2.081 3.526 2.932 0.804 0.55 1.648 1.058 2.523 1.516 0.362 0.191 0.715 0.364 1.071 0.529 0.651 0.301 1.331 0.581 2.025 0.83 0.484 0.172 0.96 0.327 1.439 0.466 0.746 0.22 1.52 0.406 2.306 0.555 0.39 0.072 0.779 0.136 1.169 0.191 1.145 0.162 2.302 0.244 3.48 0.244 0.447-0.003 0.701-0.008 0.955-0.018zM711.384 793.522c69.515-55.199 106.133-136.35 100.375-218.971l-0.611-6.481 19.258-0.022c104.49 0 189.646-82.78 193.462-186.337l0.134-7.258c0-104.49-82.78-189.646-186.337-193.462l-7.258-0.134h-48.227c-13.698 0-24.802 11.104-24.802 24.802 0 12.556 9.331 22.934 21.437 24.576l3.365 0.227h48.227c79.524 0 143.991 64.467 143.991 143.991 0 77.185-60.731 140.185-137.014 143.824l-6.977 0.166h-48.227c-15.889 0-27.68 14.731-24.2 30.234 17.022 75.83-12.264 154.243-77.44 205.996-66.059 52.454-158.712 69.3-242.641 43.91-83.31-25.202-144.882-88.011-162.011-164.318-2.542-11.324-12.595-19.37-24.2-19.37-111.848 0-202.082-86.311-202.082-192.217s90.235-192.217 202.082-192.217c13.698 0 24.802-11.104 24.802-24.802s-11.104-24.802-24.802-24.802c-138.762 0-251.686 108.015-251.686 241.822 0 125.936 100.030 229.025 227.485 240.718l4.944 0.41 2.685 8.165c27.258 78.865 93.189 142.113 178.825 171.023l9.595 3.070c99.349 30.055 208.92 10.132 287.851-52.543z" />
<glyph unicode="&#xe922;" glyph-name="Star--fill" d="M511.999 127.418l-316.433-166.359 60.434 352.354-256 249.538 353.783 51.408 158.217 320.582 158.217-320.582 353.783-51.408-256-249.538 60.434-352.354z" />
<glyph unicode="&#xe923;" glyph-name="star--stroke" d="M511.999 934.942l158.217-320.583 353.784-51.408-256-249.539 60.434-352.354-316.433 166.359-316.433-166.359 60.434 352.354-256 249.539 353.784 51.408 158.217 320.583zM634.466 565.154l-122.467 248.228-122.467-248.228-273.866-39.789 198.177-193.158-46.793-272.729 244.949 128.761 244.895-128.761-46.739 272.729 198.123 193.158-273.812 39.789z" />
<glyph unicode="&#xe924;" glyph-name="clear" d="M1024 856.913l-408.913-408.913 408.913-408.913-103.087-103.087-408.913 408.913-408.913-408.913-103.087 103.087 408.913 408.913-408.913 408.913 103.087 103.087 408.913-408.913 408.913 408.913z" />
<glyph unicode="&#xe925;" glyph-name="fax" d="M672.232 960c73.653 0 133.841-57.648 137.904-130.285l0.219-7.838-0.009-182.313 75.531-0.029c73.653 0 133.841-57.648 137.904-130.285l0.219-7.838v-213.644c0-73.653-57.648-133.841-130.285-137.904l-7.838-0.219-75.531 0.009 0.009-107.81c0-56.019-43.521-101.875-98.596-105.599l-7.247-0.244h-385.025c-58.455 0-105.843 47.388-105.843 105.843v0l-0.035 107.81-75.486-0.009c-73.653 0-133.841 57.648-137.904 130.285l-0.219 7.838v213.644c0 73.653 57.648 133.841 130.285 137.904l7.838 0.219 75.486 0.029 0.035 182.313c0 73.653 57.648 133.841 130.285 137.904l7.838 0.219h320.465zM704.512 363.289h-385.025c-23.882 0-43.241-19.359-43.241-43.241v0-278.204c0-23.882 19.359-43.241 43.241-43.241v0h385.025c23.882 0 43.241 19.359 43.241 43.241v0 278.204c0 23.882-19.359 43.241-43.241 43.241v0zM885.875 576.932h-747.752c-39.514 0-71.94-30.346-75.244-69.005l-0.278-6.517v-213.644c0-39.514 30.346-71.939 69.005-75.244l6.516-0.277 75.486 0.009 0.035 107.79c0 56.019 43.521 101.875 98.596 105.599l7.247 0.244h385.025c58.455 0 105.843-47.388 105.843-105.843v0l-0.009-107.79 75.531-0.009c39.514 0 71.94 30.346 75.244 69.005l0.278 6.517v213.644c0 39.514-30.346 71.939-69.005 75.244l-6.516 0.277zM672.232 897.398h-320.465c-39.514 0-71.94-30.346-75.244-69.005l-0.278-6.517-0.035-182.313h471.531l0.009 182.313c0 39.514-30.346 71.939-69.004 75.244l-6.517 0.277z" />
</font>
</defs>
</svg>
